<?xml version="1.0" standalone="no"?>
<!DOCTYPE svg PUBLIC "-//W3C//DTD SVG 1.1//EN" "http://www.w3.org/Graphics/SVG/1.1/DTD/svg11.dtd" >
<svg>
<metadata>
Created by FontForge 20110222 at Fri Sep 26 10:31:48 2014
 By Orthosie Webhosting
Gobold (c) Situjuh Nazara. 2013. All Rights Reserved
</metadata>
<defs>
<font id="GoboldThinRegular" horiz-adv-x="1053" >
  <font-face 
    font-family="GoboldThinRegular"
    font-weight="400"
    font-stretch="normal"
    units-per-em="2048"
    panose-1="2 0 5 0 0 0 0 0 0 0"
    ascent="1638"
    descent="-410"
    x-height="1699"
    cap-height="1932"
    bbox="-283 -323 2159 2262"
    underline-thickness="150"
    underline-position="-142"
    unicode-range="U+0020-F002"
  />
<missing-glyph horiz-adv-x="1874" 
d="M1109 1729q-151 -39 -246 -144q-32 -36 -86 -117q-60 -91 -86 -124q-80 -99 -130 -139q-82 -66 -172 -66q-73 0 -124 37q-57 41 -68 115q-2 18 -2 36q0 65 31 121q44 77 123 91q20 4 37 4q27 0 48 -9q41 -18 42 -68q-11 13 -27 13q-13 0 -24 -10q-12 -12 -12 -26
q0 -35 36 -35h2q37 0 57 41q10 22 10 44q0 21 -9 43q-17 44 -57 65q-44 23 -107 23q-15 0 -31 -1q-133 -11 -214 -110v216h1009zM100 1100q78 -80 209 -80q18 0 38 2q107 9 253 154q40 40 111 119q64 71 89 94q66 61 134 61q37 0 74 -17q109 -50 221 -50q74 0 149 22
q148 44 276 163q-16 -199 -146 -369q-25 -32 -275 -290h-66q-50 0 -83 39l-106 -106h192q-234 -260 -275 -462q-11 -56 -11 -105q0 -80 29 -142q46 -99 165 -137h-239v848l45 24v41h-784v191zM387 842q93 0 132 -39q40 -39 40 -132v-675h-459v846h287zM629 844h44v-848h-44
v848zM1419 -4q250 57 415 203v-203h-415zM1834 217q-159 -89 -299 -106q-29 -3 -56 -3q-99 0 -155 47q-55 46 -55 128q0 31 8 67q32 146 190 349q75 95 108 143h186v-58h73v-567zM1620 909q123 201 123 433q0 52 -6 106q-19 160 -22 159q8 62 119 96v-794h-214zM841 1263
q-89 0 -149 -52q-52 -46 -64 -114q-3 -17 -3 -33q0 -45 25 -77q31 -42 90 -42q10 0 20 1q72 8 93 74q6 18 6 33q0 44 -43 75q-36 26 -36 57q0 6 2 13q8 38 59 50v15z" />
    <glyph glyph-name=".notdef" horiz-adv-x="1874" 
d="M1109 1729q-151 -39 -246 -144q-32 -36 -86 -117q-60 -91 -86 -124q-80 -99 -130 -139q-82 -66 -172 -66q-73 0 -124 37q-57 41 -68 115q-2 18 -2 36q0 65 31 121q44 77 123 91q20 4 37 4q27 0 48 -9q41 -18 42 -68q-11 13 -27 13q-13 0 -24 -10q-12 -12 -12 -26
q0 -35 36 -35h2q37 0 57 41q10 22 10 44q0 21 -9 43q-17 44 -57 65q-44 23 -107 23q-15 0 -31 -1q-133 -11 -214 -110v216h1009zM100 1100q78 -80 209 -80q18 0 38 2q107 9 253 154q40 40 111 119q64 71 89 94q66 61 134 61q37 0 74 -17q109 -50 221 -50q74 0 149 22
q148 44 276 163q-16 -199 -146 -369q-25 -32 -275 -290h-66q-50 0 -83 39l-106 -106h192q-234 -260 -275 -462q-11 -56 -11 -105q0 -80 29 -142q46 -99 165 -137h-239v848l45 24v41h-784v191zM387 842q93 0 132 -39q40 -39 40 -132v-675h-459v846h287zM629 844h44v-848h-44
v848zM1419 -4q250 57 415 203v-203h-415zM1834 217q-159 -89 -299 -106q-29 -3 -56 -3q-99 0 -155 47q-55 46 -55 128q0 31 8 67q32 146 190 349q75 95 108 143h186v-58h73v-567zM1620 909q123 201 123 433q0 52 -6 106q-19 160 -22 159q8 62 119 96v-794h-214zM841 1263
q-89 0 -149 -52q-52 -46 -64 -114q-3 -17 -3 -33q0 -45 25 -77q31 -42 90 -42q10 0 20 1q72 8 93 74q6 18 6 33q0 44 -43 75q-36 26 -36 57q0 6 2 13q8 38 59 50v15z" />
    <glyph glyph-name=".null" horiz-adv-x="0" 
 />
    <glyph glyph-name="nonmarkingreturn" horiz-adv-x="508" 
 />
    <glyph glyph-name="space" unicode=" " horiz-adv-x="508" 
 />
    <glyph glyph-name="space" unicode="&#xa0;" horiz-adv-x="508" 
 />
    <glyph glyph-name="exclam" unicode="!" horiz-adv-x="505" 
d="M385 1932l-21 -1372h-223l-21 1372h265zM120 295h265v-265h-265v265z" />
    <glyph glyph-name="quotedbl" unicode="&#x22;" horiz-adv-x="905" 
d="M552 1933h233l-31 -592h-171zM120 1933h233l-31 -592h-171z" />
    <glyph glyph-name="numbersign" unicode="#" horiz-adv-x="1289" 
d="M279 853l63 317h-220v93h239l133 670h175l-133 -670h307l133 670h175l-133 -670h191v-93h-210l-63 -317h231v-93h-250l-145 -730h-175l145 730h-307l-145 -730h-175l145 730h-180v93h199zM517 1170l-63 -317h307l63 317h-307z" />
    <glyph glyph-name="dollar" unicode="$" horiz-adv-x="993" 
d="M120 1613q0 332 290 378v172h172v-172q291 -46 291 -378v-234h-224v234q0 162 -152 163h-2q-152 0 -152 -163v-178q0 -147 278 -345q252 -180 252 -429v-248q0 -333 -291 -378v-235h-172v235q-290 46 -290 378v233h223v-233q0 -163 153 -163t153 163v223q0 158 -277 356
q-252 181 -252 437v184z" />
    <glyph glyph-name="percent" unicode="%" horiz-adv-x="1637" 
d="M542 1079q0 -212 -208 -212q-209 0 -209 212v704q0 212 209 212q208 0 208 -212v-704zM1512 243q0 -212 -209 -212h-2q-206 0 -206 212v704q0 212 208 212q209 0 209 -212v-704zM1406 947q0 108 -102 108h-2q-101 0 -101 -108v-704q0 -108 102 -108q103 0 103 108v704z
M1208 1933l-700 -1903h-112l701 1903h111zM436 1783q0 108 -102 108h-2q-101 0 -101 -108v-704q0 -108 103 -108q102 0 102 108v704z" />
    <glyph glyph-name="ampersand" unicode="&#x26;" horiz-adv-x="1123" 
d="M405 262q29 -13 89 -13q13 0 28 1q128 5 128 163v490h-155q-31 -1 -56 -11q-96 -37 -96 -152v-327q0 -125 62 -151zM650 1122v134h223v-134h180v-219h-180v-490q0 -367 -316 -381q-33 -1 -64 -1q-59 0 -103 5q-270 32 -270 377v327q0 175 190 273q-190 98 -190 273v295
q0 355 289 380q42 3 86 3q37 0 76 -2q302 -20 302 -381v-54h-223v54q0 146 -95 161q-27 4 -56 4q-25 0 -52 -3q-104 -12 -104 -162v-295q0 -114 96 -153q25 -10 56 -11h155z" />
    <glyph glyph-name="quotesingle" unicode="'" horiz-adv-x="473" 
d="M120 1933h233l-31 -592h-171z" />
    <glyph glyph-name="parenleft" unicode="(" horiz-adv-x="484" 
d="M454 -217q-334 5 -334 383v1632q0 377 334 382v-173q-111 -3 -111 -163v-1725q0 -159 111 -162v-174z" />
    <glyph glyph-name="parenright" unicode=")" horiz-adv-x="484" 
d="M30 -43q111 3 111 162v1725q0 160 -111 163v173q334 -5 334 -382v-1632q0 -378 -334 -383v174z" />
    <glyph glyph-name="asterisk" unicode="*" horiz-adv-x="952" 
d="M497 1646q150 123 206 149q27 13 48 13q45 0 71 -75q10 -31 10 -55q0 -55 -74 -66q-14 -2 -33 -2q-67 0 -213 8q160 -115 201 -159q30 -32 30 -59q0 -36 -52 -74q-42 -31 -72 -31q-36 0 -63 54q-29 58 -79 245q-51 -196 -81 -249q-27 -49 -63 -49q-29 0 -70 29
q-54 38 -54 73q0 28 35 63q45 45 203 156q-151 -10 -218 -10q-24 0 -39 3q-70 14 -70 69q0 22 10 52q23 76 69 76q23 0 54 -16q56 -29 204 -140q-71 177 -78 237q-1 10 -1 20q0 74 96 75h4q95 0 95 -69q0 -14 -3 -29q-11 -64 -73 -239z" />
    <glyph glyph-name="plus" unicode="+" horiz-adv-x="987" 
d="M408 895h-288v173h288v287h172v-287h287v-173h-287v-287h-172v287z" />
    <glyph glyph-name="comma" unicode="," horiz-adv-x="531" 
d="M120 295h291v-253l-100 -339h-125l58 327h-124v265z" />
    <glyph glyph-name="hyphen" unicode="-" horiz-adv-x="726" 
d="M50 871v173h626v-173h-626z" />
    <glyph glyph-name="hyphen" unicode="&#xad;" horiz-adv-x="726" 
d="M50 871v173h626v-173h-626z" />
    <glyph glyph-name="period" unicode="." horiz-adv-x="505" 
d="M120 295h265v-265h-265v265z" />
    <glyph glyph-name="slash" unicode="/" horiz-adv-x="675" 
d="M615 1933l-379 -1903h-176l379 1903h176z" />
    <glyph glyph-name="zero" unicode="0" horiz-adv-x="993" 
d="M873 381q0 -382 -377 -382q-376 0 -376 382v1200q0 383 376 383q377 0 377 -383v-1200zM650 1581q0 163 -153 163h-2q-152 0 -152 -163v-1200q0 -163 153 -163q154 0 154 163v1200z" />
    <glyph glyph-name="one" unicode="1" horiz-adv-x="1013" 
d="M618 1932v-1683h265v-219h-753v219h265v1464h-265v219h488z" />
    <glyph glyph-name="two" unicode="2" horiz-adv-x="1013" 
d="M130 421q0 250 251 430q278 197 279 345v385q0 163 -152 163h-2q-153 0 -153 -163v-233h-223v233q0 383 376 383q377 0 377 -383v-392q0 -255 -252 -436q-278 -198 -278 -356v-148h530v-219h-753v391z" />
    <glyph glyph-name="three" unicode="3" horiz-adv-x="1013" 
d="M663 739q0 126 -63 155q-30 12 -86 12h-66v219h88q48 0 75 16q52 30 52 146v292q0 126 -63 155q-30 12 -89 12q-15 0 -31 -1q-130 -5 -130 -166v-231h-220v233q0 266 149 342q108 57 222 57q106 0 217 -49q165 -72 165 -350v-296q0 -175 -190 -273q190 -98 190 -273v-357
q0 -241 -119 -326q-77 -53 -243 -57h-24q-148 0 -228 46q-139 79 -139 337v233h220v-234q0 -167 156 -167q157 0 157 167v358z" />
    <glyph glyph-name="four" unicode="4" horiz-adv-x="1013" 
d="M849 1932v-1202h109v-219h-109v-481h-223v481h-574v212l486 1209h311zM257 730h369v937z" />
    <glyph glyph-name="five" unicode="5" horiz-adv-x="1013" 
d="M660 381v557q0 124 -62 150q-29 14 -89 14q-14 0 -29 -1q-110 -5 -124 -104l-2 -52h-223l40 987h712v-219h-498l-25 -537q120 138 230 138q15 0 32 -2q135 -12 204 -107q57 -78 57 -267v-557q0 -345 -271 -377q-44 -5 -102 -5q-31 0 -64 1q-316 14 -316 381v202h223v-202
q0 -158 128 -163h21q65 0 96 12q62 27 62 151z" />
    <glyph glyph-name="six" unicode="6" horiz-adv-x="1013" 
d="M353 1037q121 108 225 108q20 0 40 -2q125 -13 194 -87q71 -77 71 -285v-390q0 -382 -377 -382q-376 0 -376 382v1200q0 383 376 383q377 0 377 -383v-233h-223v233q0 163 -153 163h-2q-152 0 -152 -163v-544zM660 771q0 125 -62 151q-29 13 -89 13q-14 0 -29 -1
q-127 -5 -127 -163v-390q0 -163 153 -163q154 0 154 163v390z" />
    <glyph glyph-name="seven" unicode="7" horiz-adv-x="1013" 
d="M121 1713v219h777v-168l-390 -1734h-229l378 1683h-536z" />
    <glyph glyph-name="eight" unicode="8" horiz-adv-x="1013" 
d="M663 739q0 126 -63 155q-30 12 -89 12q-15 0 -31 -1q-130 -5 -130 -166v-358q0 -167 156 -167q157 0 157 167v358zM663 1579q0 126 -63 155q-30 12 -89 12q-15 0 -31 -1q-130 -5 -130 -166v-292q0 -167 156 -167q157 0 157 167v292zM883 1581v-296q0 -175 -190 -273
q190 -98 190 -273v-357q0 -241 -119 -326q-77 -53 -243 -57h-24q-148 0 -228 46q-139 79 -139 337v357q0 175 190 273q-190 98 -190 273v296q0 266 149 342q108 57 222 57q106 0 217 -49q165 -72 165 -350z" />
    <glyph glyph-name="nine" unicode="9" horiz-adv-x="1013" 
d="M660 926q-122 -109 -228 -109q-18 0 -37 2q-125 13 -194 87q-71 78 -71 285v390q0 382 377 383q376 0 376 -383v-1200q0 -382 -377 -382q-376 0 -376 382v234h223v-234q0 -162 153 -163h2q152 0 152 163v545zM353 1191q0 -124 62 -151q29 -12 87 -12q14 0 29 1
q129 4 129 162v390q0 163 -153 163q-154 0 -154 -163v-390z" />
    <glyph glyph-name="colon" unicode=":" horiz-adv-x="504" 
d="M120 1299h264v-264h-264v264zM120 295h264v-265h-264v265z" />
    <glyph glyph-name="semicolon" unicode=";" horiz-adv-x="531" 
d="M120 295h291v-253l-100 -339h-125l58 327h-124v265zM120 1299h265v-264h-265v264z" />
    <glyph glyph-name="semicolon" unicode="&#x37e;" horiz-adv-x="531" 
d="M120 295h291v-253l-100 -339h-125l58 327h-124v265zM120 1299h265v-264h-265v264z" />
    <glyph glyph-name="less" unicode="&#x3c;" horiz-adv-x="987" 
d="M120 1102l747 419v-206l-620 -338l620 -329v-206l-747 405v255z" />
    <glyph glyph-name="equal" unicode="=" horiz-adv-x="987" 
d="M120 1126v173h747v-173h-747zM120 663v172h747v-172h-747z" />
    <glyph glyph-name="greater" unicode="&#x3e;" horiz-adv-x="987" 
d="M867 847l-747 -405v206l620 329l-620 338v206l747 -419v-255z" />
    <glyph glyph-name="question" unicode="?" horiz-adv-x="993" 
d="M236 295h265v-265h-265v265zM873 1384q0 -237 -190 -426q-208 -207 -208 -366v-15h-223v39q0 232 190 421q208 205 208 354v190q0 163 -152 163h-2q-153 0 -153 -163v-233h-223v233q0 383 377 383q376 0 376 -383v-197z" />
    <glyph glyph-name="at" unicode="@" horiz-adv-x="1423" 
d="M1292 1333v-109q0 -242 -237 -242h-139v-374q0 -242 -238 -242q-237 0 -237 242v257q0 241 237 241h112v292q0 117 -111 117h-2q-110 0 -110 -117v-40h-126v40q0 241 237 241q238 0 238 -241v-292h139q111 0 111 118v186q0 442 -454 442q-455 0 -455 -455v-801
q0 -442 455 -442q454 0 454 454v13h127v-13q0 -577 -581 -577q-582 0 -582 565v801q0 578 582 578q581 0 581 -565v-77h-1zM662 983q-111 0 -111 -118v-257q0 -118 111 -118q112 0 112 118v374z" />
    <glyph glyph-name="A" unicode="A" horiz-adv-x="983" 
d="M855 692l88 -662h-226l-55 416h-341l-56 -416h-225l87 659l196 1243h337zM633 666l-142 1075l-142 -1075h284z" />
    <glyph glyph-name="B" unicode="B" horiz-adv-x="983" 
d="M130 1932l406 -1q347 0 347 -382v-295q0 -175 -190 -273q190 -98 190 -273v-296q0 -381 -347 -381q-7 0 -19 -1h-387v1902zM353 1713v-622h119q64 0 92 10q96 39 96 153v295q0 164 -153 164h-154zM353 871v-622h154q153 0 153 163v296q0 115 -96 152q-27 11 -92 11h-119z
" />
    <glyph glyph-name="C" unicode="C" horiz-adv-x="963" 
d="M863 381q0 -382 -377 -383q-376 0 -376 383v1200q0 382 376 382q377 0 377 -382v-234h-223v234q0 162 -153 163h-2q-152 0 -152 -163v-1200q0 -163 153 -163q154 0 154 163v234h223v-234z" />
    <glyph glyph-name="D" unicode="D" horiz-adv-x="993" 
d="M130 1932l406 -1q347 0 347 -382v-1137q0 -381 -347 -381q-7 0 -19 -1h-387v1902zM353 1713v-1464h154q153 0 153 163v1137q0 164 -153 164h-154z" />
    <glyph glyph-name="E" unicode="E" horiz-adv-x="884" 
d="M130 1932h674v-219h-451v-622h388v-220h-388v-622h451v-219h-674v1902z" />
    <glyph glyph-name="F" unicode="F" horiz-adv-x="864" 
d="M130 1932h674v-219h-451v-622h388v-220h-388v-841h-223v1902z" />
    <glyph glyph-name="G" unicode="G" horiz-adv-x="973" 
d="M863 381q0 -382 -377 -383q-376 0 -376 383v1200q0 382 376 382q377 0 377 -382v-234h-223v234q0 162 -153 163h-2q-152 0 -152 -163v-1200q0 -163 153 -163q154 0 154 163v490h-143v220h366v-710z" />
    <glyph glyph-name="H" unicode="H" horiz-adv-x="1013" 
d="M130 1932h223v-841h307v841h223v-1902h-223v841h-307v-841h-223v1902z" />
    <glyph glyph-name="I" unicode="I" horiz-adv-x="493" 
d="M135 1932h223v-1902h-223v1902z" />
    <glyph glyph-name="J" unicode="J" horiz-adv-x="913" 
d="M30 467h223v-86q0 -163 154 -163q153 0 153 163v1551h223v-1551q0 -383 -376 -383q-377 1 -377 383v86z" />
    <glyph glyph-name="K" unicode="K" horiz-adv-x="983" 
d="M567 981l376 -951h-238l-352 891v-891h-223v1902h223v-895l352 895h238z" />
    <glyph glyph-name="L" unicode="L" horiz-adv-x="844" 
d="M130 30v1902h223v-1683h451v-219h-674z" />
    <glyph glyph-name="M" unicode="M" horiz-adv-x="1428" 
d="M716 493l353 1439h229v-1902h-211v1347l-296 -1347h-144l-303 1340v-1340h-214v1902h230z" />
    <glyph glyph-name="N" unicode="N" horiz-adv-x="1013" 
d="M130 1932h229l322 -1366v1362l202 3v-1901h-229l-312 1332v-1332h-212v1902z" />
    <glyph glyph-name="O" unicode="O" horiz-adv-x="973" 
d="M863 381q0 -382 -377 -383q-376 0 -376 383v1200q0 382 376 382q377 0 377 -382v-1200zM640 1581q0 162 -153 163h-2q-152 0 -152 -163v-1200q0 -163 153 -163q154 0 154 163v1200z" />
    <glyph glyph-name="P" unicode="P" horiz-adv-x="939" 
d="M130 1932l382 -1q347 0 347 -382v-295q0 -282 -250 -363q-61 -20 -180 -20h-76v-841h-223v1902zM353 1713v-622h95q64 0 92 10q96 39 96 153v295q0 164 -153 164h-130z" />
    <glyph glyph-name="Q" unicode="Q" horiz-adv-x="973" 
d="M863 381q0 -342 -312 -381q9 -120 312 -122v-176q-214 0 -301 46q-106 54 -109 251q-343 25 -343 382v1200q0 382 376 382q377 0 377 -382v-1200zM640 1581q0 162 -153 163h-2q-152 0 -152 -163v-1200q0 -163 153 -163q154 0 154 163v1200z" />
    <glyph glyph-name="R" unicode="R" horiz-adv-x="972" 
d="M130 1932l382 -1q347 0 347 -382v-295q0 -238 -231 -323l314 -901h-246l-256 866l-87 -12v-854h-223v1902zM353 1713v-622h95q64 0 92 10q96 39 96 153v295q0 164 -153 164h-130z" />
    <glyph glyph-name="S" unicode="S" horiz-adv-x="973" 
d="M110 1581q0 382 376 382q377 0 377 -382v-234h-223v234q0 162 -153 163h-2q-152 0 -152 -163v-178q0 -146 278 -345q252 -180 252 -429v-248q0 -383 -376 -383q-377 1 -377 383v234h223v-234q0 -163 154 -163q153 0 153 163v224q0 157 -278 356q-252 180 -252 436v184z
" />
    <glyph glyph-name="T" unicode="T" horiz-adv-x="853" 
d="M803 1932v-219h-265v-1683h-223v1683h-265v219h753z" />
    <glyph glyph-name="U" unicode="U" horiz-adv-x="993" 
d="M873 381q0 -382 -377 -383q-376 0 -376 383v1551h223v-1551q0 -163 153 -163q154 0 154 163v1551h223v-1551z" />
    <glyph glyph-name="V" unicode="V" horiz-adv-x="983" 
d="M660 30h-337l-196 1242l-87 660h225l226 -1711l226 1711h226l-88 -662z" />
    <glyph glyph-name="W" unicode="W" horiz-adv-x="1664" 
d="M1172 221l226 1711h226l-88 -662l-195 -1240h-336l-173 1193l-172 -1193h-337l-196 1242l-87 660h224l227 -1711l226 1711h228z" />
    <glyph glyph-name="X" unicode="X" horiz-adv-x="934" 
d="M262 1932l205 -617l205 617h222l-316 -951l316 -951h-222l-205 617l-205 -617h-222l316 951l-316 951h222z" />
    <glyph glyph-name="Y" unicode="Y" horiz-adv-x="985" 
d="M276 1932l216 -858l217 858h236l-331 -1074l-10 -28v-800h-223v800l-10 29l-331 1073h236z" />
    <glyph glyph-name="Z" unicode="Z" horiz-adv-x="820" 
d="M723 1796l-393 -1547h410v-219h-660v136l393 1547h-380v219h630v-136z" />
    <glyph glyph-name="bracketleft" unicode="[" horiz-adv-x="487" 
d="M457 2180v-172h-154v-2052h154v-173h-327v2397h327z" />
    <glyph glyph-name="backslash" unicode="\" horiz-adv-x="675" 
d="M236 1933l379 -1903h-176l-379 1903h176z" />
    <glyph glyph-name="bracketright" unicode="]" horiz-adv-x="487" 
d="M357 2180v-2397h-327v173h154v2052h-154v172h327z" />
    <glyph glyph-name="asciicircum" unicode="^" horiz-adv-x="1065" 
d="M641 1949l324 -747h-188l-245 562l-243 -562h-189l325 747h216z" />
    <glyph glyph-name="underscore" unicode="_" horiz-adv-x="972" 
d="M0 -288v151h972v-151h-972z" />
    <glyph glyph-name="grave" unicode="`" horiz-adv-x="649" 
d="M130 2028h180l209 -193h-136l-253 163v30z" />
    <glyph glyph-name="a" unicode="a" horiz-adv-x="981" 
d="M855 609l86 -579h-225l-55 368h-341l-56 -368h-224l87 576l195 1093h338zM633 584l-143 950l-143 -950h286z" />
    <glyph glyph-name="b" unicode="b" horiz-adv-x="983" 
d="M130 1699h387q12 -1 19 -1q347 0 347 -332v-261q0 -151 -198 -240q198 -89 198 -241v-260q0 -333 -347 -333h-18l-388 -1v1669zM353 1513v-555h119q64 0 91 10q97 34 97 137v261q0 147 -153 147h-154zM353 772v-556h154q153 0 153 148v260q0 104 -97 138q-27 10 -91 10
h-119z" />
    <glyph glyph-name="c" unicode="c" horiz-adv-x="963" 
d="M863 336q0 -333 -377 -333q-376 0 -376 333v1057q0 334 376 334q377 0 377 -334v-202h-223v202q0 147 -153 148q-154 0 -154 -148v-1057q0 -147 153 -147q154 0 154 147v203h223v-203z" />
    <glyph glyph-name="d" unicode="d" horiz-adv-x="993" 
d="M130 1699h387q12 -1 19 -1q347 0 347 -332v-1002q0 -333 -347 -333h-18l-388 -1v1669zM353 1513v-1297h154q153 0 153 148v1002q0 147 -153 147h-154z" />
    <glyph glyph-name="e" unicode="e" horiz-adv-x="864" 
d="M130 1699h674v-186h-451v-555h388v-186h-388v-556h451v-186h-674v1669z" />
    <glyph glyph-name="f" unicode="f" horiz-adv-x="864" 
d="M130 1699h674v-186h-451v-555h388v-186h-388v-742h-223v1669z" />
    <glyph glyph-name="g" unicode="g" horiz-adv-x="973" 
d="M863 336q0 -333 -377 -333q-376 0 -376 333v1057q0 334 376 334q377 0 377 -334v-202h-223v202q0 147 -153 148q-154 0 -154 -148v-1057q0 -147 153 -147q154 0 154 147v436h-143v186h366v-622z" />
    <glyph glyph-name="h" unicode="h" horiz-adv-x="1013" 
d="M130 1699h223v-741h307v741h223v-1669h-223v742h-307v-742h-223v1669z" />
    <glyph glyph-name="i" unicode="i" horiz-adv-x="488" 
d="M135 1699h223v-1669h-223v1669z" />
    <glyph glyph-name="j" unicode="j" horiz-adv-x="913" 
d="M30 408h223v-72q0 -147 154 -147q153 0 153 147v1363h223v-1363q0 -333 -376 -333q-377 0 -377 333v72z" />
    <glyph glyph-name="k" unicode="k" horiz-adv-x="981" 
d="M568 868l373 -838h-237l-351 800v-800h-223v1669h223v-788l351 788h237z" />
    <glyph glyph-name="l" unicode="l" horiz-adv-x="844" 
d="M130 30v1669h223v-1483h451v-186h-674z" />
    <glyph glyph-name="m" unicode="m" horiz-adv-x="1428" 
d="M716 434l352 1265h230v-1669h-211v1185l-295 -1185h-146l-302 1179v-1179h-214v1669h230z" />
    <glyph glyph-name="n" unicode="n" horiz-adv-x="1013" 
d="M130 1699h230l321 -1201v1197l202 4v-1669h-230l-311 1172v-1172h-212v1669z" />
    <glyph glyph-name="o" unicode="o" horiz-adv-x="973" 
d="M863 336q0 -333 -377 -333q-376 0 -376 333v1057q0 334 376 334q377 0 377 -334v-1057zM640 1393q0 147 -153 148q-154 0 -154 -148v-1057q0 -147 153 -147q154 0 154 147v1057z" />
    <glyph glyph-name="p" unicode="p" horiz-adv-x="939" 
d="M130 1699h363q12 -1 19 -1q347 0 347 -332v-261q0 -245 -249 -316q-61 -17 -181 -17h-76v-742h-223v1669zM353 1513v-555h95q64 0 91 10q97 34 97 137v261q0 147 -153 147h-130z" />
    <glyph glyph-name="q" unicode="q" horiz-adv-x="973" 
d="M863 336q0 -297 -312 -331q10 -114 312 -116v-147q-215 0 -303 39q-104 48 -108 222q-342 22 -342 333v1057q0 334 376 334q377 0 377 -334v-1057zM640 1393q0 147 -153 148q-154 0 -154 -148v-1057q0 -147 153 -147q154 0 154 147v1057z" />
    <glyph glyph-name="r" unicode="r" horiz-adv-x="970" 
d="M130 1699h363q12 -1 19 -1q347 0 347 -332v-261q0 -206 -233 -281l314 -794h-244l-256 764l-87 -12v-752h-223v1669zM353 1513v-555h95q64 0 91 10q97 34 97 137v261q0 147 -153 147h-130z" />
    <glyph glyph-name="s" unicode="s" horiz-adv-x="973" 
d="M110 1393q0 334 376 334q377 0 377 -334v-202h-223v202q0 147 -153 148q-154 0 -154 -148v-156q0 -133 279 -308q251 -158 251 -374v-219q0 -333 -376 -333q-377 0 -377 333v203h223v-203q0 -147 154 -147q153 0 153 147v197q0 143 -279 318q-251 159 -251 380v162z" />
    <glyph glyph-name="t" unicode="t" horiz-adv-x="853" 
d="M803 1699v-186h-265v-1483h-223v1483h-265v186h753z" />
    <glyph glyph-name="u" unicode="u" horiz-adv-x="993" 
d="M873 336q0 -333 -377 -333q-376 0 -376 333v1363h223v-1363q0 -147 153 -147q154 0 154 147v1363h223v-1363z" />
    <glyph glyph-name="v" unicode="v" horiz-adv-x="981" 
d="M660 30h-338l-195 1093l-87 576h225l225 -1505l226 1505h225l-86 -578z" />
    <glyph glyph-name="w" unicode="w" horiz-adv-x="1662" 
d="M1171 195l226 1504h225l-86 -578l-195 -1091h-337l-173 1048l-171 -1048h-338l-195 1093l-87 576h224l226 -1504l226 1504h229z" />
    <glyph glyph-name="x" unicode="x" horiz-adv-x="930" 
d="M261 1699l205 -542l203 542h221l-314 -834l314 -835h-221l-203 542l-205 -542h-221l315 835l-315 834h221z" />
    <glyph glyph-name="y" unicode="y" horiz-adv-x="981" 
d="M275 1699l216 -752l215 752h235l-328 -941l-10 -25v-703h-223v703l-11 26l-329 940h235z" />
    <glyph glyph-name="z" unicode="z" horiz-adv-x="820" 
d="M723 1583l-394 -1367h411v-186h-660v116l394 1367h-381v186h630v-116z" />
    <glyph glyph-name="braceleft" unicode="{" horiz-adv-x="485" 
d="M455 -217q-334 5 -334 383v566q0 160 -111 162v175q111 3 111 162v567q0 377 334 382v-173q-111 -3 -111 -163v-566q0 -188 -88 -296q88 -109 88 -297v-566q0 -159 111 -162v-174z" />
    <glyph glyph-name="bar" unicode="|" horiz-adv-x="452" 
d="M140 2260h172v-2557h-172v2557z" />
    <glyph glyph-name="braceright" unicode="}" horiz-adv-x="485" 
d="M30 -43q111 3 111 162v566q0 188 88 297q-88 108 -88 296v566q0 160 -111 163v173q334 -5 334 -382v-567q0 -159 111 -162v-175q-111 -2 -111 -162v-566q0 -378 -334 -383v174z" />
    <glyph glyph-name="asciitilde" unicode="~" horiz-adv-x="1016" 
d="M218 873l-118 76l38 58q90 140 206 140h10q78 -4 206 -100q76 -57 130 -57q46 0 74 35l43 55l109 -87l-43 -54q-81 -103 -181 -103h-11q-78 4 -204 99q-85 64 -108 68q-7 2 -16 2q-50 0 -98 -74z" />
    <glyph glyph-name="exclamdown" unicode="&#xa1;" horiz-adv-x="565" 
d="M120 -203l21 1372h223l21 -1372h-265zM385 1434h-265v265h265v-265z" />
    <glyph glyph-name="cent" unicode="&#xa2;" horiz-adv-x="1003" 
d="M343 408l307 1003q-15 129 -153 130q-154 0 -154 -148v-985zM371 238q52 -49 125 -49q154 0 154 147v203h223v-203q0 -333 -377 -333q-92 0 -189 27l-100 -326l-77 5l108 356q-118 93 -118 271v1057q0 334 376 334q122 0 235 -46l74 240l78 -6l-87 -285q77 -93 77 -237
v-202h-211z" />
    <glyph glyph-name="sterling" unicode="&#xa3;" horiz-adv-x="1066" 
d="M476 948v-396q0 -168 -87 -303h538v-219h-867v219h39q154 0 154 164v535h-193v98h193v535q0 383 376 383q377 0 377 -383v-233h-223v233q0 163 -153 163h-2q-152 0 -152 -163v-535h331v-98h-331z" />
    <glyph glyph-name="currency" unicode="&#xa4;" horiz-adv-x="1313" 
d="M1034 848q0 -55 -9 -117l158 -157l-127 -128l-108 108q-110 -88 -291 -88q-182 0 -291 87l-107 -108l-129 129l158 157q-7 61 -7 117v267q0 47 5 100l-156 156l128 128l99 -99q109 98 300 98q190 0 300 -98l99 99l127 -128l-156 -156q7 -54 7 -100v-267zM811 1115
q0 162 -153 163h-2q-152 0 -152 -163v-267q0 -163 153 -163q154 0 154 163v267z" />
    <glyph glyph-name="yen" unicode="&#xa5;" horiz-adv-x="1105" 
d="M404 946l-304 986h236l216 -856l217 856h236l-304 -986h225v-98h-262v-219h262v-99h-262v-500h-223v500h-262v99h262v219h-262v98h225z" />
    <glyph glyph-name="brokenbar" unicode="&#xa6;" horiz-adv-x="452" 
d="M140 1699h172v-683h-172v683zM140 754h172v-724h-172v724z" />
    <glyph glyph-name="section" unicode="&#xa7;" horiz-adv-x="993" 
d="M499 -297q-356 0 -356 350v76h223v-76q0 -153 143 -153q140 0 140 153q0 209 -279 378q-250 150 -250 477q0 252 223 339q-223 149 -223 391q0 326 373 326q356 0 356 -326v-70h-223v70q0 145 -142 145q-141 0 -141 -145q0 -197 280 -356q250 -141 250 -446
q0 -261 -289 -327q289 -178 289 -456q0 -350 -374 -350zM653 896q0 173 -163 174h-2q-162 0 -162 -174v-41q0 -174 163 -174q164 0 164 174v41z" />
    <glyph glyph-name="dieresis" unicode="&#xa8;" horiz-adv-x="839" 
d="M130 2018h182v-182h-182v182zM526 2018h183v-182h-183v182z" />
    <glyph glyph-name="copyright" unicode="&#xa9;" horiz-adv-x="1403" 
d="M1283 608q0 -577 -582 -577q-581 0 -581 565v801q0 578 581 578q582 0 582 -565v-802zM1156 1410q0 442 -454 442q-455 0 -455 -455v-801q0 -442 454 -442q455 0 455 454v802zM944 604q0 -245 -241 -245q-240 0 -240 245v798q0 244 240 244q241 0 241 -244v-47h-129v47
q0 118 -111 119q-113 0 -113 -119v-798q0 -119 112 -119t112 119v46h129v-46z" />
    <glyph glyph-name="ordfeminine" unicode="&#xaa;" horiz-adv-x="690" 
d="M575 1288l55 -333h-128l-36 221h-242l-37 -221h-127l55 332l127 645h207zM451 1263l-107 604l-106 -604h213zM62 551v133h559v-133h-559z" />
    <glyph glyph-name="guillemotleft" unicode="&#xab;" horiz-adv-x="1305" 
d="M612 1193l-241 -204l241 -198v-237l-482 448l482 439v-248zM1101 1193l-241 -204l241 -198v-237l-482 448l482 439v-248z" />
    <glyph glyph-name="logicalnot" unicode="&#xac;" horiz-adv-x="1007" 
d="M130 895v173h747v-460h-172v287h-575z" />
    <glyph glyph-name="registered" unicode="&#xae;" horiz-adv-x="1403" 
d="M1283 608q0 -577 -582 -577q-581 0 -581 565v801q0 578 581 578q582 0 582 -565v-802zM1156 1410q0 442 -454 442q-455 0 -455 -455v-801q0 -442 454 -442q455 0 455 454v802zM458 1626l248 -1h12q221 0 221 -244v-197q0 -110 -139 -181q139 -71 139 -182v-441h-128v441
q0 82 -70 111q-20 8 -66 8h-89v-560h-128v1246zM586 1500v-434h89q46 0 66 8q70 28 70 110v197q0 119 -112 119h-113z" />
    <glyph glyph-name="macron" unicode="&#xaf;" horiz-adv-x="1148" 
d="M0 1782v151h1148v-151h-1148z" />
    <glyph glyph-name="degree" unicode="&#xb0;" horiz-adv-x="817" 
d="M687 1741q0 -279 -279 -279q-278 0 -278 279q0 278 278 278q279 0 279 -278zM408 1896q-155 0 -155 -155q0 -156 155 -156q156 0 156 156q0 155 -156 155z" />
    <glyph glyph-name="plusminus" unicode="&#xb1;" horiz-adv-x="987" 
d="M408 895h-288v173h288v287h172v-287h287v-173h-287v-287h-172v287zM865 342v-152h-745v152h745z" />
    <glyph glyph-name="uni00B2" unicode="&#xb2;" horiz-adv-x="614" 
d="M100 1077q0 139 141 241q167 118 168 211v224q0 108 -101 108h-1q-102 0 -102 -108v-123h-105v123q0 211 207 211t207 -211v-228q0 -143 -142 -245q-167 -119 -167 -217v-99h309v-103h-414v216z" />
    <glyph glyph-name="uni00B3" unicode="&#xb3;" horiz-adv-x="619" 
d="M414 1261q0 82 -44 103q-21 8 -56 8h-27v104h40q31 0 50 11q37 22 37 97v172q0 82 -44 103q-21 8 -58 8q-10 0 -19 -1q-88 -3 -88 -110v-124h-105v125q0 150 81 191q61 32 125 32q60 0 123 -28q90 -39 90 -195v-174q0 -96 -126 -161q126 -65 126 -161v-210
q0 -135 -65 -182q-42 -29 -136 -32h-14q-84 0 -128 26q-76 43 -76 188v125h105v-126q0 -110 104 -110q105 0 105 110v211z" />
    <glyph glyph-name="acute" unicode="&#xb4;" horiz-adv-x="649" 
d="M519 1998l-253 -163h-136l209 193h180v-30z" />
    <glyph glyph-name="mu" unicode="&#xb5;" horiz-adv-x="1003" 
d="M353 380q0 -162 153 -162q154 0 154 163v1224h223v-1224q0 -346 -292 -378q-18 -2 -34 -2q-84 0 -204 78v-376h-223v1902h223v-1225z" />
    <glyph glyph-name="paragraph" unicode="&#xb6;" horiz-adv-x="1110" 
d="M980 1933v-1903h-141v1762h-283v-1762h-141v1021q-214 0 -258 33q-57 43 -57 226v354q0 184 60 232q47 37 225 37h595z" />
    <glyph glyph-name="periodcentered" unicode="&#xb7;" horiz-adv-x="508" 
d="M119.997 1093.74h225.243v-225.244h-225.243v225.244z" />
    <glyph glyph-name="periodcentered" unicode="&#x2219;" horiz-adv-x="508" 
d="M119.997 1093.74h225.243v-225.244h-225.243v225.244z" />
    <glyph glyph-name="cedilla" unicode="&#xb8;" horiz-adv-x="574" 
d="M241 -52q52 30 94 30q8 0 17 -2q48 -7 66 -30t18 -66v-123q0 -70 -94 -78q-17 -2 -38 -2q-11 0 -22 1q-113 3 -113 78h72q0 -54 62 -54q61 0 61 55v123q0 56 -58 59h-3q-46 0 -55 -21h-69l23 119h66z" />
    <glyph glyph-name="uni00B9" unicode="&#xb9;" horiz-adv-x="1013" 
d="M386 1932v-971h153v-101h-409v101h153v870h-153v101h256z" />
    <glyph glyph-name="ordmasculine" unicode="&#xba;" horiz-adv-x="717" 
d="M597 1110q0 -188 -239 -188q-238 0 -238 188v634q0 188 238 188q239 0 239 -188v-634zM470 1744q0 100 -111 101q-112 0 -112 -101v-634q0 -101 111 -101q112 0 112 101v634zM130 536v115h456v-115h-456z" />
    <glyph glyph-name="guillemotright" unicode="&#xbb;" horiz-adv-x="1305" 
d="M130 1441l482 -439l-482 -448v237l241 198l-241 204v248zM619 1441l482 -439l-482 -448v237l241 198l-241 204v248z" />
    <glyph glyph-name="onequarter" unicode="&#xbc;" horiz-adv-x="1549" 
d="M1386 1095v-689h63v-100h-63v-276h-102v276h-329v106l274 683h157zM1041 406h243v617zM1264 1933l-700 -1903h-112l701 1903h111zM376 1932v-971h153v-101h-409v101h153v870h-153v101h256z" />
    <glyph glyph-name="onehalf" unicode="&#xbd;" horiz-adv-x="1625" 
d="M1204 1933l-700 -1903h-112l701 1903h111zM316 1932v-971h153v-101h-409v101h153v870h-153v101h256zM1111 246q0 139 141 241q167 118 168 211v224q0 108 -101 108h-1q-102 0 -102 -108v-123h-105v123q0 211 207 211t207 -211v-228q0 -143 -142 -245q-167 -119 -167 -217
v-99h309v-103h-414v216z" />
    <glyph glyph-name="threequarters" unicode="&#xbe;" horiz-adv-x="1489" 
d="M1326 1095v-689h63v-100h-63v-276h-102v276h-329v106l274 683h157zM981 406h243v617zM1204 1933l-700 -1903h-112l701 1903h111zM414 1261q0 82 -44 103q-21 8 -56 8h-27v104h40q31 0 50 11q37 22 37 97v172q0 82 -44 103q-21 8 -58 8q-10 0 -19 -1q-88 -3 -88 -110v-124
h-105v125q0 150 81 191q61 32 125 32q60 0 123 -28q90 -39 90 -195v-174q0 -96 -126 -161q126 -65 126 -161v-210q0 -135 -65 -182q-42 -29 -136 -32h-14q-84 0 -128 26q-76 43 -76 188v125h105v-126q0 -110 104 -110q105 0 105 110v211z" />
    <glyph glyph-name="questiondown" unicode="&#xbf;" 
d="M757 1434h-265v265h265v-265zM120 345q0 237 190 426q208 207 208 366v15h223v-39q0 -232 -190 -421q-208 -205 -208 -354v-190q0 -163 152 -163h2q153 0 153 163v233h223v-233q0 -383 -377 -383q-376 0 -376 383v197z" />
    <glyph glyph-name="Agrave" unicode="&#xc0;" horiz-adv-x="1091" 
d="M875 692l88 -662h-226l-55 416h-341l-56 -416h-225l87 659l196 1243h337zM653 666l-142 1075l-142 -1075h284zM211 2261h180l209 -193h-136l-253 163v30z" />
    <glyph glyph-name="Aacute" unicode="&#xc1;" horiz-adv-x="1091" 
d="M875 692l88 -662h-226l-55 416h-341l-56 -416h-225l87 659l196 1243h337zM653 666l-142 1075l-142 -1075h284zM811 2231l-253 -163h-136l209 193h180v-30z" />
    <glyph glyph-name="Acircumflex" unicode="&#xc2;" horiz-adv-x="1091" 
d="M875 692l88 -662h-226l-55 416h-341l-56 -416h-225l87 659l196 1243h337zM653 666l-142 1075l-142 -1075h284zM196 2069l195 192h240l196 -192h-171l-145 99l-145 -99h-170z" />
    <glyph glyph-name="Atilde" unicode="&#xc3;" horiz-adv-x="1091" 
d="M875 692l88 -662h-226l-55 416h-341l-56 -416h-225l87 659l196 1243h337zM653 666l-142 1075l-142 -1075h284zM292 2047l-84 45l22 45q59 119 148 124h6q59 0 157 -61q59 -37 100 -37q44 0 69 37l25 41l80 -53l-26 -43q-56 -89 -134 -93h-6q-58 0 -155 61q-71 45 -92 48
h-7q-46 0 -82 -71z" />
    <glyph glyph-name="Adieresis" unicode="&#xc4;" horiz-adv-x="1091" 
d="M875 692l88 -662h-226l-55 416h-341l-56 -416h-225l87 659l196 1243h337zM653 666l-142 1075l-142 -1075h284zM222 2251h182v-182h-182v182zM618 2251h183v-182h-183v182z" />
    <glyph glyph-name="Aring" unicode="&#xc5;" horiz-adv-x="1023" 
d="M653 666l-142 1075l-142 -1075h284zM511 2204q-110 0 -110 -110q0 -111 110 -111q111 0 111 111q0 110 -111 110zM616 1932h64l195 -1240l88 -662h-226l-55 416h-341l-56 -416h-225l87 659l196 1243h64q-64 88 -64 162q0 168 168 168q169 0 169 -168q0 -74 -64 -162z" />
    <glyph glyph-name="AE" unicode="&#xc6;" horiz-adv-x="1414" 
d="M547 446h-206l-56 -416h-225l87 659l196 1243h878v-219h-451v-622h388v-220h-388v-622h451v-219h-674v416zM547 666v803l-36 271l-142 -1074h178z" />
    <glyph glyph-name="Ccedilla" unicode="&#xc7;" horiz-adv-x="963" 
d="M448 -1q-338 19 -338 382v1200q0 382 376 382q377 0 377 -382v-234h-223v234q0 162 -153 163h-2q-152 0 -152 -163v-1200q0 -163 153 -163q154 0 154 163v234h223v-234q0 -370 -354 -383l-15 -50q52 30 94 30q9 0 17 -2q49 -7 66.5 -30t17.5 -66v-123q0 -70 -94 -78
q-17 -2 -38 -2q-11 0 -22 1q-113 3 -113 78h72q0 -54 62 -54t62 55v123q0 56 -58 59h-4q-46 0 -55 -21h-69z" />
    <glyph glyph-name="Egrave" unicode="&#xc8;" horiz-adv-x="944" 
d="M130 1932h674v-219h-451v-622h388v-220h-388v-622h451v-219h-674v1902zM166 2261h180l209 -193h-136l-253 163v30z" />
    <glyph glyph-name="Eacute" unicode="&#xc9;" horiz-adv-x="944" 
d="M130 1932h674v-219h-451v-622h388v-220h-388v-622h451v-219h-674v1902zM768 2231l-253 -163h-136l209 193h180v-30z" />
    <glyph glyph-name="Ecircumflex" unicode="&#xca;" horiz-adv-x="944" 
d="M108 1932h674v-219h-451v-622h388v-220h-388v-622h451v-219h-674v1902zM129 2069l195 192h240l196 -192h-171l-145 99l-145 -99h-170z" />
    <glyph glyph-name="Edieresis" unicode="&#xcb;" horiz-adv-x="944" 
d="M130 1932h674v-219h-451v-622h388v-220h-388v-622h451v-219h-674v1902zM178 2251h182v-182h-182v182zM574 2251h183v-182h-183v182z" />
    <glyph glyph-name="Igrave" unicode="&#xcc;" horiz-adv-x="553" 
d="M135 1932h223v-1902h-223v1902zM-54 2261h180l209 -193h-136l-253 163v30z" />
    <glyph glyph-name="Iacute" unicode="&#xcd;" horiz-adv-x="553" 
d="M111 1932h223v-1902h-223v1902zM523 2231l-253 -163h-136l209 193h180v-30z" />
    <glyph glyph-name="Icircumflex" unicode="&#xce;" horiz-adv-x="553" 
d="M93 1932h223v-1902h-223v1902zM-112 2069l195 192h240l196 -192h-171l-145 99l-145 -99h-170z" />
    <glyph glyph-name="Idieresis" unicode="&#xcf;" horiz-adv-x="553" 
d="M135 1932h223v-1902h-223v1902zM-43 2251h182v-182h-182v182zM353 2251h183v-182h-183v182z" />
    <glyph glyph-name="Eth" unicode="&#xd0;" horiz-adv-x="1055" 
d="M405 906v-657h154q153 0 153 163v1137q0 164 -153 164h-154v-656h98v-151h-98zM182 1057v875l406 -1q347 0 347 -382v-1137q0 -381 -347 -381q-7 0 -19 -1h-387v876h-124v151h124z" />
    <glyph glyph-name="Ntilde" unicode="&#xd1;" horiz-adv-x="1073" 
d="M130 1932h229l322 -1366v1362l202 3v-1901h-229l-312 1332v-1332h-212v1902zM287 2047l-84 45l22 45q59 119 148 124h6q59 0 157 -61q59 -37 100 -37q44 0 69 37l25 41l80 -53l-26 -43q-56 -89 -134 -93h-6q-58 0 -155 61q-71 45 -92 48h-7q-46 0 -82 -71z" />
    <glyph glyph-name="Ograve" unicode="&#xd2;" 
d="M873 381q0 -382 -377 -383q-376 0 -376 383v1200q0 382 376 382q377 0 377 -382v-1200zM650 1581q0 162 -153 163h-2q-152 0 -152 -163v-1200q0 -163 153 -163q154 0 154 163v1200zM196 2261h180l209 -193h-136l-253 163v30z" />
    <glyph glyph-name="Oacute" unicode="&#xd3;" 
d="M873 381q0 -382 -377 -383q-376 0 -376 383v1200q0 382 376 382q377 0 377 -382v-1200zM650 1581q0 162 -153 163h-2q-152 0 -152 -163v-1200q0 -163 153 -163q154 0 154 163v1200zM797 2231l-253 -163h-136l209 193h180v-30z" />
    <glyph glyph-name="Ocircumflex" unicode="&#xd4;" 
d="M873 381q0 -382 -377 -383q-376 0 -376 383v1200q0 382 376 382q377 0 377 -382v-1200zM650 1581q0 162 -153 163h-2q-152 0 -152 -163v-1200q0 -163 153 -163q154 0 154 163v1200zM181 2069l195 192h240l196 -192h-171l-145 99l-145 -99h-170z" />
    <glyph glyph-name="Otilde" unicode="&#xd5;" 
d="M873 381q0 -382 -377 -383q-376 0 -376 383v1200q0 382 376 382q377 0 377 -382v-1200zM650 1581q0 162 -153 163h-2q-152 0 -152 -163v-1200q0 -163 153 -163q154 0 154 163v1200zM277 2047l-84 45l22 45q59 119 148 124h6q59 0 157 -61q59 -37 100 -37q44 0 69 37
l25 41l80 -53l-26 -43q-56 -89 -134 -93h-6q-58 0 -155 61q-71 45 -92 48h-7q-46 0 -82 -71z" />
    <glyph glyph-name="Odieresis" unicode="&#xd6;" 
d="M873 381q0 -382 -377 -383q-376 0 -376 383v1200q0 382 376 382q377 0 377 -382v-1200zM650 1581q0 162 -153 163h-2q-152 0 -152 -163v-1200q0 -163 153 -163q154 0 154 163v1200zM207 2251h182v-182h-182v182zM603 2251h183v-182h-183v182z" />
    <glyph glyph-name="multiply" unicode="&#xd7;" horiz-adv-x="962" 
d="M481 859l-202 -203l-123 123l204 203l-203 203l122 122l203 -203l202 203l122 -123l-203 -202l203 -203l-122 -122z" />
    <glyph glyph-name="Oslash" unicode="&#xd8;" horiz-adv-x="993" 
d="M356 299q43 -81 140 -81q154 0 154 163v1129zM343 567l273 1131q-53 46 -119 46h-2q-152 0 -152 -163v-1014zM744 1900q129 -105 129 -319v-1200q0 -382 -377 -383q-100 0 -203 36l-52 -210h-78l62 256q-105 106 -105 301v1200q0 382 376 382q84 0 178 -26l33 134h79z
" />
    <glyph glyph-name="Ugrave" unicode="&#xd9;" 
d="M873 381q0 -382 -377 -383q-376 0 -376 383v1551h223v-1551q0 -163 153 -163q154 0 154 163v1551h223v-1551zM196 2261h180l209 -193h-136l-253 163v30z" />
    <glyph glyph-name="Uacute" unicode="&#xda;" 
d="M873 381q0 -382 -377 -383q-376 0 -376 383v1551h223v-1551q0 -163 153 -163q154 0 154 163v1551h223v-1551zM797 2231l-253 -163h-136l209 193h180v-30z" />
    <glyph glyph-name="Ucircumflex" unicode="&#xdb;" 
d="M873 381q0 -382 -377 -383q-376 0 -376 383v1551h223v-1551q0 -163 153 -163q154 0 154 163v1551h223v-1551zM181 2069l195 192h240l196 -192h-171l-145 99l-145 -99h-170z" />
    <glyph glyph-name="Udieresis" unicode="&#xdc;" 
d="M873 381q0 -382 -377 -383q-376 0 -376 383v1551h223v-1551q0 -163 153 -163q154 0 154 163v1551h223v-1551zM207 2251h182v-182h-182v182zM603 2251h183v-182h-183v182z" />
    <glyph glyph-name="Yacute" unicode="&#xdd;" horiz-adv-x="1106" 
d="M296 1932l216 -858l217 858h236l-331 -1074l-10 -28v-800h-223v800l-10 29l-331 1073h236zM813 2231l-253 -163h-136l209 193h180v-30z" />
    <glyph glyph-name="Thorn" unicode="&#xde;" horiz-adv-x="958" 
d="M353 1605h122q5 0 17 -1h20q346 0 346 -382v-295q0 -282 -249 -363q-62 -20 -181 -20h-75v-841h-223v2229h223v-327zM353 1386v-623h94q65 0 93 11q95 39 95 153v295q0 164 -153 164h-129z" />
    <glyph glyph-name="germandbls" unicode="&#xdf;" horiz-adv-x="993" 
d="M883 1254q0 -175 -192 -273q192 -97 192 -273v-508q0 -381 -348 -381h3v218q122 0 122 163v508q0 114 -96 153q-28 11 -93 11h-118v-842h-223v1520q0 382 376 382q377 0 377 -382v-296zM353 1091h118q65 0 93 11q96 37 96 152v296q0 162 -153 163h-2q-152 0 -152 -163
v-459z" />
    <glyph glyph-name="agrave" unicode="&#xe0;" horiz-adv-x="1091" 
d="M875 609l86 -579h-225l-55 368h-341l-56 -368h-224l87 576l195 1093h338zM653 584l-143 950l-143 -950h286zM210 2028h180l209 -193h-136l-253 163v30z" />
    <glyph glyph-name="aacute" unicode="&#xe1;" horiz-adv-x="1091" 
d="M875 609l86 -579h-225l-55 368h-341l-56 -368h-224l87 576l195 1093h338zM653 584l-143 950l-143 -950h286zM811 1998l-253 -163h-136l209 193h180v-30z" />
    <glyph glyph-name="acircumflex" unicode="&#xe2;" horiz-adv-x="1091" 
d="M875 609l86 -579h-225l-55 368h-341l-56 -368h-224l87 576l195 1093h338zM653 584l-143 950l-143 -950h286zM195 1836l195 192h240l196 -192h-171l-145 99l-145 -99h-170z" />
    <glyph glyph-name="atilde" unicode="&#xe3;" horiz-adv-x="1091" 
d="M875 609l86 -579h-225l-55 368h-341l-56 -368h-224l87 576l195 1093h338zM653 584l-143 950l-143 -950h286zM291 1814l-84 45l22 45q59 119 148 124h6q59 0 157 -61q59 -37 100 -37q44 0 69 37l25 41l80 -53l-26 -43q-56 -89 -134 -93h-6q-58 0 -155 61q-71 45 -92 48h-7
q-46 0 -82 -71z" />
    <glyph glyph-name="adieresis" unicode="&#xe4;" horiz-adv-x="1091" 
d="M875 609l86 -579h-225l-55 368h-341l-56 -368h-224l87 576l195 1093h338zM653 584l-143 950l-143 -950h286zM221 2018h182v-182h-182v182zM617 2018h183v-182h-183v182z" />
    <glyph glyph-name="aring" unicode="&#xe5;" horiz-adv-x="1021" 
d="M653 584l-143 950l-143 -950h286zM510 1971q-110 0 -110 -110q0 -111 110 -111q111 0 111 111q0 110 -111 110zM615 1699h65l195 -1090l86 -579h-225l-55 368h-341l-56 -368h-224l87 576l195 1093h64q-64 88 -64 162q0 168 168 168q169 0 169 -168q0 -74 -64 -162z" />
    <glyph glyph-name="ae" unicode="&#xe6;" horiz-adv-x="1503" 
d="M547 398h-207l-56 -368h-224l87 576l195 1093h879v-186h-451v-555h388v-186h-388v-556h451v-186h-674v368zM547 584v703l-37 248l-143 -951h180z" />
    <glyph glyph-name="ccedilla" unicode="&#xe7;" horiz-adv-x="963" 
d="M442 4l-17 -56q52 30 94 30q8 0 17 -2q48 -7 66 -30t18 -66v-123q0 -70 -94 -78q-17 -2 -38 -2q-11 0 -23 1q-112 3 -112 78h72q0 -54 62 -54q61 0 61 55v123q0 56 -58 59h-3q-46 0 -55 -21h-69l18 93q-271 42 -271 325v1057q0 334 376 334q377 0 377 -334v-202h-223v202
q0 147 -153 148q-154 0 -154 -148v-1057q0 -147 153 -147q154 0 154 147v203h223v-203q0 -333 -377 -333q-23 0 -44 1z" />
    <glyph glyph-name="egrave" unicode="&#xe8;" horiz-adv-x="924" 
d="M130 1699h674v-186h-451v-555h388v-186h-388v-556h451v-186h-674v1669zM166 2028h180l209 -193h-136l-253 163v30z" />
    <glyph glyph-name="eacute" unicode="&#xe9;" horiz-adv-x="924" 
d="M130 1699h674v-186h-451v-555h388v-186h-388v-556h451v-186h-674v1669zM768 1998l-253 -163h-136l209 193h180v-30z" />
    <glyph glyph-name="ecircumflex" unicode="&#xea;" horiz-adv-x="924" 
d="M108 1699h674v-186h-451v-555h388v-186h-388v-556h451v-186h-674v1669zM129 1836l195 192h240l196 -192h-171l-145 99l-145 -99h-170z" />
    <glyph glyph-name="edieresis" unicode="&#xeb;" horiz-adv-x="924" 
d="M130 1699h674v-186h-451v-555h388v-186h-388v-556h451v-186h-674v1669zM178 2018h182v-182h-182v182zM574 2018h183v-182h-183v182z" />
    <glyph glyph-name="igrave" unicode="&#xec;" horiz-adv-x="514" 
d="M135 1699h223v-1669h-223v1669zM-54 2028h180l209 -193h-136l-253 163v30z" />
    <glyph glyph-name="iacute" unicode="&#xed;" horiz-adv-x="514" 
d="M111 1699h223v-1669h-223v1669zM523 1998l-253 -163h-136l209 193h180v-30z" />
    <glyph glyph-name="icircumflex" unicode="&#xee;" horiz-adv-x="514" 
d="M93 1699h223v-1669h-223v1669zM-112 1836l195 192h240l196 -192h-171l-145 99l-145 -99h-170z" />
    <glyph glyph-name="idieresis" unicode="&#xef;" horiz-adv-x="514" 
d="M135 1699h223v-1669h-223v1669zM-43 2018h182v-182h-182v182zM353 2018h183v-182h-183v182z" />
    <glyph glyph-name="eth" unicode="&#xf0;" horiz-adv-x="993" 
d="M313 1371l-100 118l209 176q-99 61 -189 96l52 167q170 -50 291 -135l161 136l99 -118l-148 -124q185 -246 185 -635v-639q0 -383 -376 -383q-377 0 -377 383v365q0 362 321 362q95 0 209 -91q0 319 -119 506zM343 413q0 -163 154 -163q153 0 153 163v365q0 158 -127 163
q-16 1 -30 1q-59 0 -88 -12q-62 -27 -62 -152v-365z" />
    <glyph glyph-name="ntilde" unicode="&#xf1;" horiz-adv-x="1073" 
d="M130 1699h230l321 -1201v1197l202 4v-1669h-230l-311 1172v-1172h-212v1669zM287 1814l-84 45l22 45q59 119 148 124h6q59 0 157 -61q59 -37 100 -37q44 0 69 37l25 41l80 -53l-26 -43q-56 -89 -134 -93h-6q-58 0 -155 61q-71 45 -92 48h-7q-46 0 -82 -71z" />
    <glyph glyph-name="ograve" unicode="&#xf2;" 
d="M873 336q0 -333 -377 -333q-376 0 -376 333v1057q0 334 376 334q377 0 377 -334v-1057zM650 1393q0 147 -153 148q-154 0 -154 -148v-1057q0 -147 153 -147q154 0 154 147v1057zM196 2028h180l209 -193h-136l-253 163v30z" />
    <glyph glyph-name="oacute" unicode="&#xf3;" 
d="M873 336q0 -333 -377 -333q-376 0 -376 333v1057q0 334 376 334q377 0 377 -334v-1057zM650 1393q0 147 -153 148q-154 0 -154 -148v-1057q0 -147 153 -147q154 0 154 147v1057zM797 1998l-253 -163h-136l209 193h180v-30z" />
    <glyph glyph-name="ocircumflex" unicode="&#xf4;" 
d="M873 336q0 -333 -377 -333q-376 0 -376 333v1057q0 334 376 334q377 0 377 -334v-1057zM650 1393q0 147 -153 148q-154 0 -154 -148v-1057q0 -147 153 -147q154 0 154 147v1057zM181 1836l195 192h240l196 -192h-171l-145 99l-145 -99h-170z" />
    <glyph glyph-name="otilde" unicode="&#xf5;" 
d="M873 336q0 -333 -377 -333q-376 0 -376 333v1057q0 334 376 334q377 0 377 -334v-1057zM650 1393q0 147 -153 148q-154 0 -154 -148v-1057q0 -147 153 -147q154 0 154 147v1057zM277 1814l-84 45l22 45q59 119 148 124h6q59 0 157 -61q59 -37 100 -37q44 0 69 37l25 41
l80 -53l-26 -43q-56 -89 -134 -93h-6q-58 0 -155 61q-71 45 -92 48h-7q-46 0 -82 -71z" />
    <glyph glyph-name="odieresis" unicode="&#xf6;" 
d="M873 336q0 -333 -377 -333q-376 0 -376 333v1057q0 334 376 334q377 0 377 -334v-1057zM650 1393q0 147 -153 148q-154 0 -154 -148v-1057q0 -147 153 -147q154 0 154 147v1057zM207 2018h182v-182h-182v182zM603 2018h183v-182h-183v182z" />
    <glyph glyph-name="divide" unicode="&#xf7;" horiz-adv-x="1045" 
d="M865 1070v-174h-745v174h745zM360 1618h264v-264h-264v264zM360 614h264v-265h-264v265z" />
    <glyph glyph-name="oslash" unicode="&#xf8;" horiz-adv-x="982" 
d="M369 239q53 -50 126 -50q154 0 154 147v820zM342 411l307 1003q-17 126 -153 127q-154 0 -154 -148v-982zM795 1631q77 -93 77 -238v-1057q0 -333 -377 -333q-92 0 -190 27l-100 -326l-77 5l109 356q-118 94 -118 271v1057q0 334 376 334q122 0 235 -46l73 240l78 -6z
" />
    <glyph glyph-name="ugrave" unicode="&#xf9;" 
d="M873 336q0 -333 -377 -333q-376 0 -376 333v1363h223v-1363q0 -147 153 -147q154 0 154 147v1363h223v-1363zM196 2028h180l209 -193h-136l-253 163v30z" />
    <glyph glyph-name="uacute" unicode="&#xfa;" 
d="M873 336q0 -333 -377 -333q-376 0 -376 333v1363h223v-1363q0 -147 153 -147q154 0 154 147v1363h223v-1363zM797 1998l-253 -163h-136l209 193h180v-30z" />
    <glyph glyph-name="ucircumflex" unicode="&#xfb;" 
d="M873 336q0 -333 -377 -333q-376 0 -376 333v1363h223v-1363q0 -147 153 -147q154 0 154 147v1363h223v-1363zM181 1836l195 192h240l196 -192h-171l-145 99l-145 -99h-170z" />
    <glyph glyph-name="udieresis" unicode="&#xfc;" 
d="M873 336q0 -333 -377 -333q-376 0 -376 333v1363h223v-1363q0 -147 153 -147q154 0 154 147v1363h223v-1363zM207 2018h182v-182h-182v182zM603 2018h183v-182h-183v182z" />
    <glyph glyph-name="yacute" unicode="&#xfd;" horiz-adv-x="1106" 
d="M295 1699l216 -752l215 752h235l-328 -941l-10 -25v-703h-223v703l-11 26l-329 940h235zM811 1998l-253 -163h-136l209 193h180v-30z" />
    <glyph glyph-name="thorn" unicode="&#xfe;" horiz-adv-x="950" 
d="M353 1605h122q5 0 17 -1h20q346 0 346 -382v-295q0 -282 -249 -363q-62 -20 -181 -20h-75v-841h-223v2229h223v-327zM353 1386v-623h94q65 0 93 11q95 39 95 153v295q0 164 -153 164h-129z" />
    <glyph glyph-name="ydieresis" unicode="&#xff;" horiz-adv-x="1106" 
d="M295 1699l216 -752l215 752h235l-328 -941l-10 -25v-703h-223v703l-11 26l-329 940h235zM222 2018h182v-182h-182v182zM618 2018h183v-182h-183v182z" />
    <glyph glyph-name="dotlessi" unicode="&#x131;" horiz-adv-x="454" 
d="M135 1699h223v-1669h-223v1669z" />
    <glyph glyph-name="circumflex" unicode="&#x2c6;" horiz-adv-x="962" 
d="M166 1836l195 192h240l196 -192h-171l-145 99l-145 -99h-170z" />
    <glyph glyph-name="caron" unicode="&#x2c7;" horiz-adv-x="962" 
d="M336 2028l145 -99l145 99h171l-196 -192h-240l-195 192h170z" />
    <glyph glyph-name="uni02C9" unicode="&#x2c9;" horiz-adv-x="839" 
d="M130 2006h579v-171h-579v171z" />
    <glyph glyph-name="breve" unicode="&#x2d8;" horiz-adv-x="934" 
d="M804 2025q-97 -198 -344 -198h-8q-249 4 -322 198h148q31 -108 191 -108h1q161 0 191 108h143z" />
    <glyph glyph-name="dotaccent" unicode="&#x2d9;" horiz-adv-x="443" 
d="M130 2023h183v-182h-183v182z" />
    <glyph glyph-name="ring" unicode="&#x2da;" horiz-adv-x="597" 
d="M467 1861q0 -169 -169 -169q-168 0 -168 169q0 168 168 168q169 0 169 -168zM298 1971q-110 0 -110 -110q0 -111 110 -111q111 0 111 111q0 110 -111 110z" />
    <glyph glyph-name="ogonek" unicode="&#x2db;" horiz-adv-x="1024" 
 />
    <glyph glyph-name="tilde" unicode="&#x2dc;" horiz-adv-x="867" 
d="M214 1814l-84 45l22 45q59 119 148 124h6q59 0 157 -61q59 -37 100 -37q44 0 69 37l25 41l80 -53l-26 -43q-56 -89 -134 -93h-6q-58 0 -155 61q-71 45 -92 48h-7q-46 0 -82 -71z" />
    <glyph glyph-name="hungarumlaut" unicode="&#x2dd;" horiz-adv-x="1024" 
 />
    <glyph glyph-name="endash" unicode="&#x2013;" horiz-adv-x="1112" 
d="M50 871v173h1000v-173h-1000z" />
    <glyph glyph-name="emdash" unicode="&#x2014;" horiz-adv-x="1988" 
d="M50 871v173h1903v-173h-1903z" />
    <glyph glyph-name="quoteleft" unicode="&#x2018;" horiz-adv-x="497" 
d="M420 1341h-290v254l99 338h126l-58 -327h123v-265z" />
    <glyph glyph-name="quoteright" unicode="&#x2019;" horiz-adv-x="550" 
d="M130 1933h290v-254l-99 -338h-126l58 327h-123v265z" />
    <glyph glyph-name="quotesinglbase" unicode="&#x201a;" horiz-adv-x="497" 
d="M120 295h291v-253l-100 -339h-125l58 327h-124v265z" />
    <glyph glyph-name="quotedblleft" unicode="&#x201c;" horiz-adv-x="1047" 
d="M420 1341h-290v254l99 338h126l-58 -327h123v-265zM910 1341h-290v254l99 338h126l-58 -327h123v-265z" />
    <glyph glyph-name="quotedblright" unicode="&#x201d;" horiz-adv-x="1100" 
d="M130 1933h290v-254l-99 -338h-126l58 327h-123v265zM620 1933h290v-254l-99 -338h-126l58 327h-123v265z" />
    <glyph glyph-name="quotedblbase" unicode="&#x201e;" horiz-adv-x="1100" 
d="M130 296h290v-254l-99 -338h-126l58 327h-123v265zM620 296h290v-254l-99 -338h-126l58 327h-123v265z" />
    <glyph glyph-name="dagger" unicode="&#x2020;" horiz-adv-x="1394" 
d="M745 1416l438 59q11 2 21 2q60 0 60 -111q0 -113 -68 -113q-10 0 -19 2l-427 61q32 -245 32 -543v-160q0 -300 26 -501q2 -11 2 -21q0 -60 -110 -61q-114 0 -114 70q0 8 2 17q28 191 28 470q0 51 -1 105q-1 42 -1 84q0 290 37 536l-439 -59q-11 -2 -21 -2q-60 0 -61 111
q0 113 68 113q10 0 19 -2l428 -62l-58 439q-3 12 -3 21q0 60 111 60q113 0 113 -68q0 -10 -2 -19z" />
    <glyph glyph-name="daggerdbl" unicode="&#x2021;" horiz-adv-x="1394" 
d="M806 1844q-37 -257 -37 -337q0 -41 14 -55q13 -13 51 -13q78 0 348 36q11 2 21 2q60 0 61 -111q0 -113 -68 -113q-10 0 -19 2l-428 61l23 -169q35 -28 35 -57q0 -6 -1 -13q-6 -43 -6 -91q0 -52 7 -109q2 -8 2 -14q0 -28 -42 -54l-24 -159l439 58q11 2 21 2q60 0 61 -110
q0 -114 -70 -114q-8 0 -17 2l-428 62l58 -438q2 -11 2 -21q0 -60 -110 -61q-114 0 -114 70q0 8 2 17l62 428l-439 -58q-12 -3 -21 -3q-59 0 -59 111q0 113 68 113q9 0 18 -2l428 -61l-23 169q-35 28 -35 58q0 6 1 13q6 43 6 90q0 52 -7 109q-2 8 -2 14q0 28 42 54l24 160
l-439 -59q-11 -2 -21 -2q-60 0 -60 111q0 113 68 113q9 0 18 -2l428 -62l-58 438q-2 12 -2 21q0 61 110 61q114 0 114 -70q0 -8 -2 -17z" />
    <glyph glyph-name="bullet" unicode="&#x2022;" horiz-adv-x="927" 
d="M700 1219q97 -97 97 -236q0 -138 -97 -236q-98 -97 -237 -97q-138 0 -236 97q-97 98 -97 236q0 139 97 236q98 98 236 98q139 0 237 -98z" />
    <glyph glyph-name="ellipsis" unicode="&#x2026;" horiz-adv-x="2048" 
d="M120 295h265v-265h-265v265zM803 295h265v-265h-265v265zM1486 295h265v-265h-265v265z" />
    <glyph glyph-name="guilsinglleft" unicode="&#x2039;" horiz-adv-x="742" 
d="M612 1193l-241 -204l241 -198v-237l-482 448l482 439v-248z" />
    <glyph glyph-name="guilsinglright" unicode="&#x203a;" horiz-adv-x="742" 
d="M130 1441l482 -439l-482 -448v237l241 198l-241 204v248z" />
    <glyph glyph-name="fraction" unicode="&#x2044;" horiz-adv-x="256" 
d="M529 1933l-700 -1903h-112l701 1903h111z" />
    <glyph glyph-name="fraction" unicode="&#x2215;" horiz-adv-x="256" 
d="M529 1933l-700 -1903h-112l701 1903h111z" />
    <glyph glyph-name="franc" unicode="&#x20a3;" horiz-adv-x="903" 
d="M169 566v1366h674v-219h-451v-622h388v-220h-388v-305h186v-151h-186v-385h-223v385h-119v151h119z" />
    <glyph glyph-name="lira" unicode="&#x20a4;" horiz-adv-x="1065" 
d="M252 1205v376q0 383 377 383q376 0 376 -383v-233h-223v233q0 163 -153 163h-2q-152 0 -152 -163v-376h332v-99h-332v-218h332v-99h-332v-237q0 -168 -87 -303h539v-219h-867v219h39q153 0 153 164v376h-192v99h192v218h-192v99h192z" />
    <glyph glyph-name="peseta" unicode="&#x20a7;" horiz-adv-x="2115" 
d="M325 1713v-622h88q59 0 85 10q87 40 87 153v295q0 164 -140 164h-120zM780 1513v-259q0 -283 -224 -364q-53 -19 -160 -19h-71v-841h-195v1902l341 -1q231 0 295 -232h717v-61q138 89 299 89q377 0 377 -334v-202h-223v202q0 147 -153 148q-154 0 -154 -148v-156
q0 -133 279 -308q251 -158 251 -374v-219q0 -333 -376 -333q-377 0 -377 333v203h223v-203q0 -147 154 -147q153 0 153 147v197q0 143 -279 318q-251 159 -251 380v162q0 46 12 120h-200v-1483h-223v1483h-215z" />
    <glyph glyph-name="Euro" unicode="&#x20ac;" horiz-adv-x="1034" 
d="M171 1189v392q0 383 376 383q377 0 377 -383v-233h-223v233q0 163 -153 163h-2q-152 0 -152 -163v-392h382v-98h-382v-220h382v-98h-382v-392q0 -163 153 -163q154 0 154 163v234h223v-234q0 -382 -377 -382q-376 0 -376 382v392h-141v98h141v220h-141v98h141z" />
    <glyph glyph-name="afii61352" unicode="&#x2116;" horiz-adv-x="1850" 
d="M130 1932h229l322 -1366v1362l202 3v-1901h-229l-312 1332v-1332h-212v1902zM1670 1110q0 -188 -239 -188q-238 0 -238 188v634q0 188 238 188q239 0 239 -188v-634zM1543 1744q0 100 -111 101q-112 0 -112 -101v-634q0 -101 111 -101q112 0 112 101v634zM1203 536v115
h456v-115h-456z" />
    <glyph glyph-name="trademark" unicode="&#x2122;" horiz-adv-x="1048" 
d="M366 1699v-52h-119v-673h-68v673h-119v52h306zM726 1080l171 620h75v-725h-62v656l-162 -656h-41l-165 649v-649h-63v725h74z" />
    <glyph glyph-name="partialdiff" unicode="&#x2202;" horiz-adv-x="993" 
d="M650 1049q0 551 -418 712l53 167q588 -173 588 -876v-639q0 -383 -377 -383q-376 0 -376 383v365q0 362 320 362q96 0 210 -91zM343 413q0 -163 154 -163q153 0 153 163v365q0 158 -128 163q-16 1 -30 1q-58 0 -87 -12q-62 -27 -62 -152v-365z" />
    <glyph glyph-name="Delta" unicode="&#x2206;" horiz-adv-x="1081" 
 />
    <glyph glyph-name="product" unicode="&#x220f;" horiz-adv-x="1515" 
 />
    <glyph glyph-name="summation" unicode="&#x2211;" horiz-adv-x="1206" 
 />
    <glyph glyph-name="minus" unicode="&#x2212;" horiz-adv-x="985" 
d="M865 1070v-174h-745v174h745z" />
    <glyph glyph-name="radical" unicode="&#x221a;" horiz-adv-x="1014" 
 />
    <glyph glyph-name="infinity" unicode="&#x221e;" horiz-adv-x="1014" 
 />
    <glyph glyph-name="integral" unicode="&#x222b;" horiz-adv-x="665" 
 />
    <glyph glyph-name="approxequal" unicode="&#x2248;" horiz-adv-x="1100" 
d="M218 932l-118 76l38 58q90 140 206 140h10q78 -4 206 -100q76 -57 130 -57q46 0 74 35l43 55l109 -87l-43 -54q-81 -103 -181 -103h-11q-78 4 -204 99q-85 64 -108 68q-7 2 -16 2q-50 0 -98 -74zM218 561l-118 76l38 58q90 140 206 140h10q78 -4 206 -100q76 -57 130 -57
q46 0 74 35l43 55l109 -87l-43 -54q-81 -103 -181 -103h-11q-78 4 -204 99q-85 64 -108 68q-7 2 -16 2q-50 0 -98 -74z" />
    <glyph glyph-name="lessequal" unicode="&#x2264;" horiz-adv-x="1047" 
d="M120 1061l747 419v-206l-620 -338l620 -329v-206l-747 405v255zM865 204v-174h-745v174h745z" />
    <glyph glyph-name="greaterequal" unicode="&#x2265;" horiz-adv-x="1047" 
d="M867 806l-747 -405v206l620 329l-620 338v206l747 -419v-255zM865 204v-174h-745v174h745z" />
    <glyph glyph-name="uniF001" unicode="&#xf001;" horiz-adv-x="1472" 
d="M130 1699h674v-186h-451v-555h388v-186h-388v-742h-223v1669zM1059 1699h223v-1669h-223v1669z" />
    <glyph glyph-name="uniF001" unicode="&#xfb01;" horiz-adv-x="1472" 
d="M130 1699h674v-186h-451v-555h388v-186h-388v-742h-223v1669zM1059 1699h223v-1669h-223v1669z" />
    <glyph glyph-name="uniF002" unicode="&#xf002;" horiz-adv-x="1848" 
d="M130 1699h674v-186h-451v-555h388v-186h-388v-742h-223v1669zM1054 30v1669h223v-1483h451v-186h-674z" />
    <glyph glyph-name="uniF002" unicode="&#xfb02;" horiz-adv-x="1848" 
d="M130 1699h674v-186h-451v-555h388v-186h-388v-742h-223v1669zM1054 30v1669h223v-1483h451v-186h-674z" />
    </font>
</defs>
</svg>
